the.vampire.diaries.S08E01.1080P.hdtv.x265.opus.bluury torrent

Sonia Oct 22, 2016

  1. Sonia

    Sonia Administrator Staff Member

    3,089
    123
    63
    Screens
    [​IMG][​IMG][​IMG]
    Video
    ID : 3
    Format : HEVC
    Format/Info : High Efficiency Video Coding
    Format profile : Main@L4@Main
    Codec ID : V_MPEGH/ISO/HEVC
    Duration : 42 min
    Bit rate : 655 kb/s
    Width : 1 920 pixels
    Height : 1 078 pixels
    Display aspect ratio : 16:9
    Frame rate mode : Constant
    Frame rate : 23.976 (24000/1001) FPS
    Color space : YUV
    Chroma subsampling : 4:2:0
    Bit depth : 8 bits
    Bits/(Pixel*Frame) : 0.013
    Stream size : 199 MiB (80%)
    Writing library : x265 2.1+20-c64393b415ad:[Windows][MSVC 1900][64 bit] 8bit
    Encoding settings : wpp / ctu=64 / min-cu-size=8 / max-tu-size=32 / tu-intra-depth=1 / tu-inter-depth=1 / me=3 / subme=3 / merange=57 / rect / amp / max-merge=2 / temporal-mvp / no-early-skip / rskip / rdpenalty=0 / no-tskip / no-tskip-fast / no-strong-intra-smoothing / no-lossless / no-cu-lossless / no-constrained-intra / no-fast-intra / open-gop / no-temporal-layers / interlace=0 / keyint=250 / min-keyint=23 / scenecut=40 / rc-lookahead=25 / lookahead-slices=0 / bframes=8 / bframe-bias=0 / b-adapt=2 / ref=4 / limit-refs=2 / limit-modes / weightp / weightb / aq-mode=0 / qg-size=64 / aq-strength=1.00 / cbqpoffs=0 / crqpoffs=0 / rd=4 / psy-rd=1.00 / rdoq-level=2 / psy-rdoq=0.00 / log2-max-poc-lsb=8 / limit-tu=0 / no-rd-refine / signhide / deblock=-2:-2 / sao / no-sao-non-deblock / b-pyramid / no-cutree / no-intra-refresh / rc=crf / crf=27.0 / qcomp=0.60 / qpmin=0 / qpmax=69 / qpstep=4 / ipratio=1.40 / pbratio=1.30
    Default : Yes
    Forced : No
    Color range : Limited
    Color primaries : BT.709

    Audio
    ID : 1
    Format : Opus
    Codec ID : A_OPUS
    Duration : 42 min
    Bit rate : 158 kb/s
    Channel(s) : 6 channels
    Channel positions : Front: L C R, Rear: L R, LFE
    Sampling rate : 48.0 kHz
    Frame rate : 50.000 FPS (960 spf)
    Compression mode : Lossy
    Stream size : 48.1 MiB (19%)
    Default : Yes
    Forced : No

    Text
    ID : 2
    Format : UTF-8
    Codec ID : S_TEXT/UTF8
    Codec ID/Info : UTF-8 Plain Text
    Duration : 41 min
    Bit rate : 81 b/s
    Count of elements : 890
    Stream size : 25.0 KiB (0%)
    Default : Yes
    Forced : No
     

    Attached Files:

Users Who Have Read This Thread (Total: 0)