Welcome!

By registering with us, you'll be able to discuss, share and private message with other members of our community.

Series The Bachelorette Australia - S02E09.mp4 torrent

Discussion in 'Others' started by Sonia, Oct 23, 2016.

Share This Page

  1. Sonia

    By:SoniaOct 23, 2016
    Administrator
    Staff Member

    Joined:
    Jun 12, 2015
    Messages:
    3,221
    Likes Received:
    125
    The Bachelorette Australia - S02E09

    [​IMG]

    Georgia invites one lucky bachelor on a date recreating memorable moments from Georgia's favourite movies. Later, one of the favourites will be sent home in an emotional shock elimination.

    Media Info
    Complete name : The Bachelorette Australia - S02E09.mp4
    Format : MPEG-4
    Format profile : Base Media / Version 2
    Codec ID : mp42 (mp42/isom/avc1)
    File size : 393 MiB
    Duration : 49 min 38 s
    Overall bit rate mode : Variable
    Overall bit rate : 1 106 kb/s

    Video
    ID : 2
    Format : AVC
    Format/Info : Advanced Video Codec
    Format profile : High@L4.1
    Format settings, CABAC : Yes
    Format settings, ReFrames : 3 frames
    Codec ID : avc1
    Codec ID/Info : Advanced Video Coding
    Duration : 49 min 38 s
    Bit rate mode : Variable
    Bit rate : 975 kb/s
    Maximum bit rate : 1 000 kb/s
    Width : 720 pixels
    Height : 404 pixels
    Display aspect ratio : 16:9
    Original display aspect ratio : 16:9
    Frame rate mode : Constant
    Frame rate : 25.000 FPS
    Standard : PAL
    Color space : YUV
    Chroma subsampling : 4:2:0
    Bit depth : 8 bits
    Scan type : Progressive
    Bits/(Pixel*Frame) : 0.134
    Stream size : 346 MiB (88%)
    Writing library : x264 core 112
    Color range : Limited
    Color primaries : BT.601 PAL
    Transfer characteristics : BT.470 System B, BT.470 System G
    Matrix coefficients : BT.601

    Audio
    ID : 1
    Format : AAC
    Format/Info : Advanced Audio Codec
    Format profile : LC
    Codec ID : 40
    Duration : 49 min 38 s
    Bit rate mode : Variable
    Bit rate : 128 kb/s
    Maximum bit rate : 576 kb/s
    Channel(s) : 2 channels
    Channel positions : Front: L R
    Sampling rate : 48.0 kHz
    Frame rate : 46.875 FPS (1024 spf)
    Compression mode : Lossy
    Stream size : 45.5 MiB (12%)
     

    Attached Files:

Users Who Have Read This Thread (Total: 0)