Welcome!

By registering with us, you'll be able to discuss, share and private message with other members of our community.

BluRay Storks.2016.BRRip.480p.x264.AAC-VYTO [P2PDL] torrent

Discussion in 'BluRay' started by Sonia, Dec 6, 2016.

Share This Page

  1. Sonia

    By:SoniaDec 6, 2016
    Administrator
    Staff Member

    Joined:
    Jun 12, 2015
    Messages:
    3,315
    Likes Received:
    126
    Torrent Description
    [​IMG]


    Storks.2016.BRRip.480p.x264.AAC-VYTO


    Genre: Animation, Adventure, Comedy
    IMDb: http://www.imdb.com/title/tt4624424/

    Quote:
    Format : MPEG-4
    File size : 301 MiB
    Duration : 1 h 26 min
    Overall bit rate : 484 kb/s

    Video
    Format : AVC
    Duration : 1 h 26 min
    Bit rate : 445 kb/s
    Width : 720 pixels
    Height : 304 pixels
    Display aspect ratio : 2.35:1
    Frame rate mode : Constant
    Frame rate : 23.976 (24000/1001) FPS
    Bit depth : 8 bits
    Stream size : 277 MiB (92%)
    Writing library : x264

    Audio
    Format : AAC
    Bit rate mode : Variable
    Bit rate : 36.0 kb/s
    Channel(s) : 2 channels
    Channel positions : Front: L R
    Sampling rate : 44.1 kHz
    Stream size : 22.4 MiB (7%)
    Language : English

    Subtitle : Yes (English)

    Source : 720p.BluRay

    Screen Shots: (click on image to see in full size)

    [​IMG]

    [​IMG]
    [​IMG]

    [​IMG]

    [​IMG]
    [​IMG]

    [​IMG]

    [​IMG]
     

    Attached Files:

  2. DYINGGFETUSS

    By:DYINGGFETUSSDec 18, 2016
    New Member

    Joined:
    Dec 18, 2016
    Messages:
    11
    Likes Received:
    0
    Thanks
     

Users Who Have Read This Thread (Total: 0)