Welcome!

By registering with us, you'll be able to discuss, share and private message with other members of our community.

Sing 2016 READNFO CAM XviD AC3 ACAB torrent

Discussion in 'Others' started by Sonia, Jan 3, 2017.

Share This Page

  1. Sonia

    By:SoniaJan 3, 2017
    Administrator
    Staff Member

    Joined:
    Jun 12, 2015
    Messages:
    3,315
    Likes Received:
    126
    [​IMG]


    http://www.imdb.com/title/tt3470600/


    A koala named Buster Moon has one final chance to restore his theater to its former glory by producing the world's greatest singing competition.

    Directors: Christophe Lourdelet, Garth Jennings
    Writer: Garth Jennings
    Stars: Matthew McConaughey, Reese Witherspoon, Seth MacFarlane
    Genres: Animation | Comedy | Drama | Family | Music
    Country: USA | UK
    Language: English


    READNFO Reason
    For Some Reason When Syncing Video And Audio Its Duplicated Frames When This Happens It Only Lasts A Second Doesnt Spoil The Movie (Hopefully Not Anyways) Maybe I Proper Encoder Could Sync Properly But I Dont Pretend That Im Great Far From It. So For Now Enjoy ...

    P.s. Theres More Stuff In The Pipeline >>>

    Source Video - MVGEE [Thanks]
    Source Audio - Thanks Bro :bow:

    Format : AVI
    Format/Info : Audio Video Interleave
    File size : 1.42 GiB
    Duration : 1 h 41 min
    Overall bit rate : 2 001 kb/s
    Writing library : VirtualDub build 30091/release

    Video
    ID : 0
    Format : MPEG-4 Visual
    Format profile : Advanced Simple@L5
    Format settings, BVOP : 2
    Format settings, QPel : No
    Format settings, GMC : No warppoints
    Format settings, Matrix : Default (H.263)
    Muxing mode : Packed bitstream
    Codec ID : XVID
    Codec ID/Hint : XviD
    Duration : 1 h 41 min
    Bit rate : 1 800 kb/s
    Width : 720 pixels
    Height : 384 pixels
    Display aspect ratio : 1.85:1
    Frame rate : 25.000 FPS
    Color space : YUV
    Chroma subsampling : 4:2:0
    Bit depth : 8 bits
    Scan type : Progressive
    Compression mode : Lossy
    Bits/(Pixel*Frame) : 0.260
    Stream size : 1.28 GiB (90%)
    Writing library : XviD 67

    Audio
    ID : 1
    Format : AC-3
    Format/Info : Audio Coding 3
    Mode extension : CM (complete main)
    Format settings, Endianness : Big
    Codec ID : 2000
    Duration : 1 h 41 min
    Bit rate mode : Constant
    Bit rate : 192 kb/s
    Sampling rate : 48.0 kHz
    Frame rate : 31.250 FPS (1536 spf)
    Compression mode : Lossy
    Stream size : 139 MiB (10%)
    Alignment : Aligned on interleaves
    Interleave, duration : 40 ms (1.00 video frame)
    Interleave, preload duration : 512 ms


    [​IMG] [​IMG] [​IMG] [​IMG]
     

    Attached Files:

Users Who Have Read This Thread (Total: 0)