Shut.In.2016.HDCAM.x264 - Lesnar torrent

Sonia Dec 6, 2016

  1. Sonia

    Sonia Administrator Staff Member

    3,041
    117
    63
    Shut.In.2016.HDCAM.x264 - Lesnar
    [​IMG]





    Quote:
    General
    Unique ID : 230450549378597377196350536717003378327 (0xAD5F294FDD19EDFEA0A08CA0B8E7CE97)
    Complete name : [​IMG]\jhk\Shut.In.2016.HDCAM.x264 - Lesnar.mkv
    Format : Matroska
    Format version : Version 4 / Version 2
    File size : 382 MiB
    Duration : 1 h 26 min
    Overall bit rate : 617 kb/s
    Encoded date : UTC 2016-12-01 18:47:04
    Writing application : mkvmerge v9.5.0 ('Quiet Fire') 32bit
    Writing library : libebml v1.3.4 + libmatroska v1.4.5

    Video
    ID : 1
    Format : AVC
    Format/Info : Advanced Video Codec
    Format profile : High@L3.1
    Format settings, CABAC : Yes
    Format settings, ReFrames : 4 frames
    Codec ID : V_MPEG4/ISO/AVC
    Duration : 1 h 26 min
    Bit rate : 512 kb/s
    Width : 718 pixels
    Height : 304 pixels
    Display aspect ratio : 2.35:1
    Frame rate mode : Constant
    Frame rate : 29.970 (29970/1000) FPS
    Color space : YUV
    Chroma subsampling : 4:2:0
    Bit depth : 8 bits
    Scan type : Progressive
    Bits/(Pixel*Frame) : 0.078
    Stream size : 321 MiB (84%)
    Writing library : x264 core 142 r2491 24e4fed
    Encoding settings : cabac=1 / ref=3 / deblock=1:0:0 / analyse=0x3:0x113 / me=hex / subme=7 / psy=1 / psy_rd=1.00:0.00 / mixed_ref=1 / me_range=16 / chroma_me=1 / trellis=1 / 8x8dct=1 / cqm=0 / deadzone=21,11 / fast_pskip=1 / chroma_qp_offset=-2 / threads=12 / lookahead_threads=2 / sliced_threads=0 / nr=0 / decimate=1 / interlaced=0 / bluray_compat=0 / constrained_intra=0 / bframes=3 / b_pyramid=2 / b_adapt=1 / b_bias=0 / direct=1 / weightb=1 / open_gop=0 / weightp=2 / keyint=300 / keyint_min=30 / scenecut=40 / intra_refresh=0 / rc_lookahead=40 / rc=abr / mbtree=1 / bitrate=512 / ratetol=1.0 / qcomp=0.60 / qpmin=0 / qpmax=69 / qpstep=4 / vbv_maxrate=17500 / vbv_bufsize=17500 / nal_hrd=none / filler=0 / ip_ratio=1.40 / aq=1:1.00
    Default : Yes
    Forced : No
    Color range : Limited
    Color primaries : BT.601 NTSC
    Transfer characteristics : BT.709
    Matrix coefficients : BT.601

    Audio
    ID : 2
    Format : AAC
    Format/Info : Advanced Audio Codec
    Format profile : LC
    Codec ID : A_AAC
    Duration : 1 h 26 min
    Bit rate : 96.0 kb/s
    Channel(s) : 2 channels
    Channel positions : Front: L R
    Sampling rate : 44.1 kHz
    Frame rate : 43.066 FPS (1024 spf)
    Compression mode : Lossy
    Delay relative to video : -67 ms
    Stream size : 59.9 MiB (16%)
    Default : Yes
    Forced : No











    SCREENSHOTS
    Click On Image
    [​IMG] [​IMG] [​IMG] [​IMG] [​IMG] [​IMG] [​IMG]
     

    Attached Files:

Users Who Have Read This Thread (Total: 0)