Welcome!

By registering with us, you'll be able to discuss, share and private message with other members of our community.

BluRay Ong Bak The Thai Warrior (2003) HQ 1080p Blu-Ray x264 DTSHD-MA MSubs -DDR torrent

Discussion in 'BluRay' started by Sonia, Dec 23, 2016.

Share This Page

  1. Sonia

    By:SoniaDec 23, 2016
    Administrator
    Staff Member

    Joined:
    Jun 12, 2015
    Messages:
    3,315
    Likes Received:
    126
    [​IMG]

    HQ 1080p Blu-ray Rip x264

    English DTSHD-MA 5.1 Audio

    English + Spanish Subtitles

    SCREENSHOTS
    [​IMG] [​IMG] [​IMG] [​IMG] [​IMG] [​IMG] [​IMG] [​IMG] [​IMG] [​IMG] [​IMG] [​IMG] [​IMG] [​IMG] [​IMG] [​IMG] [​IMG] [​IMG]


    SPECS

    Source: BD50 @ Taterzero (thanks)

    Format : Matroska
    File size : 9.46 GiB
    Duration : 1 h 45 min
    Overall bit rate : 12.9 Mb/s

    Video
    Format : AVC
    Format/Info : Advanced Video Codec
    Format profile : High@L4.1
    Format settings, CABAC : Yes
    Format settings, ReFrames : 5 frames
    Codec ID : V_MPEG4/ISO/AVC
    Duration : 1 h 45 min
    Bit rate : 10 000 kb/s
    Width : 1 920 pixels
    Height : 1 080 pixels
    Display aspect ratio : 16:9
    Frame rate mode : Constant
    Frame rate : 23.976 (24000/1001) FPS
    Color space : YUV
    Chroma subsampling : 4:2:0
    Bit depth : 8 bits
    Scan type : Progressive
    Bits/(Pixel*Frame) : 0.201
    Stream size : 7.34 GiB (78%)
    Language : English
    Default : Yes
    Forced : No
    Color range : Limited
    Color primaries : BT.709
    Transfer characteristics : BT.709
    Matrix coefficients : BT.709

    Audio #1
    Format : DTS
    Format/Info : Digital Theater Systems
    Format profile : MA / Core
    Mode : 16
    Format settings, Endianness : Big
    Codec ID : A_DTS
    Duration : 1 h 45 min
    Bit rate mode : Variable / Constant
    Bit rate : 2 859 kb/s / 768 kb/s
    Channel(s) : 6 channels
    Channel positions : Front: L C R, Side: L R, LFE
    Sampling rate : 48.0 kHz
    Frame rate : 93.750 FPS (512 spf)
    Bit depth : 24 bits
    Compression mode : Lossless / Lossy
    Stream size : 2.10 GiB (22%)
    Language : English
    Default : Yes
    Forced : No

    Chapters : YES (UnNamed)
     

    Attached Files:

Users Who Have Read This Thread (Total: 0)