Series National.Geographic.Ultimate.Dino.Survivor.HDTV.x264

Discussion in 'History' started by Cyry, Jun 15, 2015.

  1. [​IMG]

    Description: Screenshots:

    [​IMG]
    -W4F Releasing TV since 2002-

    Proudly Presents

    National.Geographic.Ultimate.Dino.Survivor.HDTV.x264-W4F

    RELEASE iNFO

    Release Date 2015.06.15
    Air Date 2015.06.07
    Genre Documentary

    EPiSODE iNFO

    The Tyrannosaurus rex was the top predator of its day, but new
    fossils reveal that the life of the T. rex and its cousins was
    brutal, and devastating injuries were routine.

    Enjoy!

    W4F GROUP NEWS

    W4F is one of the oldest TV scene groups, founded and supported on an
    ethos of releasing purely for fun. We pride ourselves in releasing
    quality programming in a variety of formats to include reality,
    scripted, documentary and animation.

    We are still actively interested in finding capable individuals who
    would like to join the W4F family. Potential recruits will be US based
    and able to capture HDTV content with knowledge of digital capture
    methods, e.g. using HDHomeRun, Ceton, Set-top box (STB) firewire
    output.

    We are also interested in recruiting those who can capture either
    Netflix or Amazon originals.

    Contact email: w4fcrew@gmail.com

    W4F has nothing to do with torrents/p2p so don\'t ask about that!

    Occasionally we are also interested in hearing from site owners who
    are interested in affiliating W4F. Private links with archives only.

    Greets to all W4F/CLASSiCW4F members, both past and present. [​IMG]

    [-] Hide MediaInfo

    Video
    ID : 1
    Format : AVC
    Format/Info : Advanced Video Codec
    Format profile : High@L3.1
    Format settings, CABAC : Yes
    Format settings, ReFrames : 5 frames
    Codec ID : avc1
    Codec ID/Info : Advanced Video Coding
    Duration : 43mn 59s
    Bit rate : 852 Kbps
    Maximum bit rate : 3 906 Kbps
    Width : 720 pixels
    Height : 404 pixels
    Display aspect ratio : 16:9
    Frame rate mode : Constant
    Frame rate : 25.000 fps
    Color space : YUV
    Chroma subsampling : 4:2:0
    Bit depth : 8 bits
    Scan type : Progressive
    Bits/(Pixel*Frame) : 0.117
    Stream size : 268 MiB (86%)
    Writing library : x264 core 146 r2538 121396c
    Encoding settings : cabac=1 / ref=5 / deblock=1:0:0 / analyse=0x3:0x113 / me=umh / subme=8 / psy=1 / psy_rd=1.00:0.00 / mixed_ref=1 / me_range=16 / chroma_me=1 / trellis=1 / 8x8dct=1 / cqm=0 / deadzone=21,11 / fast_pskip=1 / chroma_qp_offset=-2 / threads=12 / lookahead_threads=2 / sliced_threads=0 / nr=0 / decimate=1 / interlaced=0 / bluray_compat=0 / constrained_intra=0 / bframes=3 / b_pyramid=2 / b_adapt=2 / b_bias=0 / direct=3 / weightb=1 / open_gop=0 / weightp=2 / keyint=250 / keyint_min=25 / scenecut=40 / intra_refresh=0 / rc_lookahead=50 / rc=crf / mbtree=1 / crf=22.0 / qcomp=0.60 / qpmin=0 / qpmax=69 / qpstep=4 / ip_ratio=1.40 / aq=1:1.00
    Encoded date : UTC 2015-06-14 20:14:31
    Tagged date : UTC 2015-06-14 20:14:34
    Color range : Limited
    Matrix coefficients : BT.709

    Audio
    ID : 2
    Format : AAC
    Format/Info : Advanced Audio Codec
    Format profile : LC
    Codec ID : 40
    Duration : 43mn 59s
    Bit rate mode : Variable
    Bit rate : 129 Kbps
    Maximum bit rate : 153 Kbps
    Channel(s) : 2 channels
    Channel positions : Front: L R
    Sampling rate : 48.0 KHz
    Compression mode : Lossy
    Stream size : 40.6 MiB (13%)
    Language : English
    Encoded date : UTC 2015-06-14 20:14:34
    Tagged date : UTC 2015-06-14 20:14:34

    Text
    ID : 3
    Format : Timed Text
    Codec ID : tx3g
    Duration : 44mn 0s
    Bit rate mode : Variable
    Bit rate : 125 bps
    Stream size : 40.3 KiB (0%)
    Language : English
    Encoded date : UTC 2015-06-14 20:14:34
    Tagged date : UTC 2015-06-14 20:14:34
     

Users Who Have Read This Thread (Total: 0)