Line.Walker.2016.BRRip.480p.x264.AAC-VYTO [P2PDL] torrent

Sonia Nov 9, 2016

  1. Sonia

    Sonia Administrator Staff Member

    3,093
    123
    63
    Torrent Description
    [​IMG]


    Line.Walker.2016.BRRip.480p.x264.AAC-VYTO


    Genre: Action, Thriller
    IMDb: http://www.imdb.com/title/tt5896962/

    Quote:
    Format : MPEG-4
    File size : 402 MiB
    Duration : 1 h 48 min
    Overall bit rate : 516 kb/s

    Video
    Format : AVC
    Bit rate : 473 kb/s
    Width : 720 pixels
    Height : 304 pixels
    Display aspect ratio : 2.35:1
    Frame rate mode : Constant
    Frame rate : 24.000 FPS
    Bit depth : 8 bits
    Stream size : 368 MiB (92%)
    Writing library : x264

    Audio
    Format : AAC
    Bit rate mode : Variable
    Bit rate : 40.0 kb/s
    Channel(s) : 2 channels
    Channel positions : Front: L R
    Sampling rate : 44.1 kHz
    Stream size : 31.1 MiB (8%)
    Language : Chinese-Mandarin

    Subtitle : Yes (English)

    Source : 720p.BluRay

    Screen Shots: (click on image to see in full size)

    [​IMG]

    [​IMG]
    [​IMG]

    [​IMG]

    [​IMG]
    [​IMG]

    [​IMG]

    [​IMG]
    [​IMG]

    [​IMG]

    [​IMG]
    [​IMG]
     

    Attached Files:

Users Who Have Read This Thread (Total: 0)