Welcome!

By registering with us, you'll be able to discuss, share and private message with other members of our community.

Series Grimm.S06E01.720p.HDTV.x264-AVS [No Rar][PRiME] torrent

Discussion in 'Fantasy' started by Sonia, Jan 7, 2017.

Share This Page

  1. Sonia

    By:SoniaJan 7, 2017
    Administrator
    Staff Member

    Joined:
    Jun 12, 2015
    Messages:
    3,221
    Likes Received:
    125
    Grimm.S06E01.720p.HDTV.x264-AVS [No Rar][PRiME]
    [​IMG] [​IMG]
    [​IMG]

    Complete name : Grimm.S06E01.720p.HDTV.x264-AVS[PRiME].mkv
    Format : Matroska
    Format version : Version 4 / Version 2
    File size : 876 MiB
    Duration : 42 min 9 s
    Overall bit rate : 2 906 kb/s
    Encoded date : UTC 2017-01-07 01:05:27
    Writing application : FastLE v2.5.0 - AVS
    Writing library : libx264 + libebml + libmatroska + libfastrar

    Video
    ID : 1
    Format : AVC
    Format/Info : Advanced Video Codec
    Format profile : High@L4.1
    Format settings, CABAC : Yes
    Format settings, ReFrames : 5 frames
    Codec ID : V_MPEG4/ISO/AVC
    Duration : 42 min 9 s
    Bit rate : 2 464 kb/s
    Width : 1 280 pixels
    Height : 720 pixels
    Display aspect ratio : 16:9
    Frame rate mode : Constant
    Frame rate : 23.976 (24000/1001) FPS
    Color space : YUV
    Chroma subsampling : 4:2:0
    Bit depth : 8 bits
    Scan type : Progressive
    Bits/(Pixel*Frame) : 0.112
    Stream size : 743 MiB (85%)
    Writing library : x264 core 148 r2721 72d53ab
    Encoding settings : cabac=1 / ref=5 / deblock=1:0:0 / analyse=0x3:0x113 / me=hex / subme=8 / psy=1 / psy_rd=1.00:0.00 / mixed_ref=1 / me_range=16 / chroma_me=1 / trellis=2 / 8x8dct=1 / cqm=0 / deadzone=21,11 / fast_pskip=1 / chroma_qp_offset=-2 / threads=22 / lookahead_threads=3 / sliced_threads=0 / nr=0 / decimate=1 / interlaced=0 / bluray_compat=0 / constrained_intra=0 / bframes=3 / b_pyramid=2 / b_adapt=1 / b_bias=0 / direct=3 / weightb=1 / open_gop=0 / weightp=2 / keyint=250 / keyint_min=23 / scenecut=40 / intra_refresh=0 / rc_lookahead=50 / rc=crf / mbtree=1 / crf=18.0 / qcomp=0.60 / qpmin=0 / qpmax=69 / qpstep=4 / ip_ratio=1.40 / aq=1:1.00
    Default : Yes
    Forced : No
    Color range : Limited
    Matrix coefficients : BT.709

    Audio
    ID : 2
    Format : AC-3
    Format/Info : Audio Coding 3
    Mode extension : CM (complete main)
    Format settings, Endianness : Big
    Codec ID : A_AC3
    Duration : 42 min 9 s
    Bit rate mode : Constant
    Bit rate : 384 kb/s
    Channel(s) : 6 channels
    Channel positions : Front: L C R, Side: L R, LFE
    Sampling rate : 48.0 kHz
    Frame rate : 31.250 FPS (1536 spf)
    Compression mode : Lossy
    Stream size : 116 MiB (13%)
    Default : Yes
    Forced : No

    [​IMG]

    Click Image To View Full Size

    [​IMG]
    Click To View Screenshot
    Click To View Screenshot
    Click To View Screenshot
     

    Attached Files:

Users Who Have Read This Thread (Total: 0)