Welcome!

By registering with us, you'll be able to discuss, share and private message with other members of our community.

Series Fear the Walking Dead Season 1 (S01) Complete 1080p WEB-DL DD5.1 x264-NTb torre

Discussion in 'Horror/Thriller' started by Sonia, Oct 30, 2015.

Share This Page

  1. Sonia

    By:SoniaOct 30, 2015
    Administrator
    Staff Member

    Joined:
    Jun 12, 2015
    Messages:
    3,288
    Likes Received:
    126
    Fear the Walking Dead:[​IMG]

    Living in the same universe as The Walking Dead, Fear the Walking Dead is a gritty drama that explores the onset of the undead apocalypse through the lens of a fractured family. Set in Los Angeles, a city where people come to escape, shield secrets, and bury their pasts, a mysterious outbreak threatens to disrupt what little stability high school guidance counselor Madison Clark and English teacher Travis Manawa have managed to assemble. EPISODES:
    Episode 1 Pilot 1080p WEB-DL
    Episode 2 So Close, Yet So Far 1080p WEB-DL
    Episode 3 The Dog 1080p WEB-DL
    Episode 4 Not Fade Away 1080p WEB-DL
    Episode 5 Cobalt 1080p WEB-DL
    Episode 6 The Good Man 1080p WEB-DL Video
    ID : 1
    Format : AVC
    Format/Info : Advanced Video Codec
    Format profile : High@L4
    Format settings, CABAC : Yes
    Format settings, ReFrames : 4 frames
    Codec ID : V_MPEG4/ISO/AVC
    Duration : 42mn 56s
    Bit rate : 5 074 Kbps
    Width : 1 920 pixels
    Height : 1 080 pixels
    Display aspect ratio : 16:9
    Frame rate mode : Constant
    Frame rate : 23.976 fps
    Color space : YUV
    Chroma subsampling : 4:2:0
    Bit depth : 8 bits
    Scan type : Progressive
    Bits/(Pixel*Frame) : 0.102
    Stream size : 1.52 GiB (91%)
    Language : English
    Default : Yes
    Forced : No
    Color range : Limited
    Color primaries : BT.709
    Transfer characteristics : BT.709
    Matrix coefficients : BT.709

    Audio
    ID : 2
    Format : AC-3
    Format/Info : Audio Coding 3
    Mode extension : CM (complete main)
    Format settings, Endianness : Big
    Codec ID : A_AC3
    Duration : 42mn 56s
    Bit rate mode : Constant
    Bit rate : 384 Kbps
    Channel(s) : 6 channels
    Channel positions : Front: L C R, Side: L R, LFE
    Sampling rate : 48.0 KHz
    Compression mode : Lossy
    Stream size : 118 MiB (7%)
    Language : English
    Default : Yes
    Forced : No

    Text
    ID : 3
    Format : UTF-8
    Codec ID : S_TEXT/UTF8
    Codec ID/Info : UTF-8 Plain Text
    Language : English
    Default : Yes
    Forced : No Screenshots:
    [​IMG]
    [​IMG]
    [​IMG]
     

    Attached Files:

Users Who Have Read This Thread (Total: 0)